London Has Fallen (2015) Sólo Audio Latino [AC3 2.0][256 Kbps][Extraído del WEB-DL]

El Primer Ministro Británico ha fallecido en misteriosas circunstancias. Su funeral en Londres es un acto al que acuden todos los líderes relevantes de Occidente. Pero lo que comienza siendo el evento con más seguridad del planeta se convierte en un complot mortal para acabar con los líderes más poderosos del mundo, devastando la capital británica y desencadenando el terror. Sólo tres personas pueden detenerlo: el Presidente de los Estados Unidos, su Jefe del Servicio Secreto (Gerard Butler) y una agente del MI-6 que no confía en nadie.
 
Notas de producción:
- Segunda parte de 'Objetivo: La Casa Blanca', de 2013.
 
Audio Original
Audio
Format : AC-3
Format/Info : Audio Coding 3
Mode extension : CM (complete main)
Format settings, Endianness : Big
Duration : 1h 38mn 43Seg
Bit rate mode : Constant
Bit rate : 256 Kbps
Channel(s) : 2 channels
Channel positions : Front: L R
Sampling rate : 48.0 KHz
Compression mode : Lossy
Stream size : 181 MiB (100%)
 
 
DELAY DE -1200
London Has Fallen 2016 1080p BluRay x264-DRONES
London Has Fallen 2016 BRRip XviD AC3-EVO
London Has Fallen 2016 BDRip x264-DRONES
 
 
 
 
 
 
************************************************************************************************************
 
 
AUDIO EDIT 24000 FPS
Media Info:
Audio
Format : AC-3
Format/Info : Audio Coding 3
Mode extension : CM (complete main)
Format settings, Endianness : Big
Duration : 1h 38mn 37seg
Bit rate mode : Constant
Bit rate : 256 Kbps
Channel(s) : 2 channels
Channel positions : Front: L R
Sampling rate : 48.0 KHz
Compression mode : Lossy
Stream size : 181 MiB (100%)
 
DELAY -2260
London.Has.Fallen.2016.720p.WEB-DL.XviD.MP3-FGT
London.Has.Fallen.2016.1080p.WEB-DL.AAC2.0.H264-FGT
London.Has.Fallen.2016.WEB-DL.x264-FGT
London.Has.Fallen.2016.WEB-DL.XviD.MP3-FGT
London.Has.Fallen.2016.WEB-DL.XviD.AC3.2.0-EVO
London.Has.Fallen.2016.720p.WEB-DL.x264-Ganool
London.Has.Fallen.2016.720p.WEBRip.x264.AAC-ETRG
London.Has.Fallen.2016.720p.WEB-DL.x264-MKVCage
London.Has.Fallen.2016.HDRip.XviD-ETRG
London.Has.Fallen.2016.HDRip.XviD.AC3-EVO
 
 
Y EN CASO DE QUE NO QUEDE O ALGUN DESFASE ACA
LES DEJO UN MINITUTORIAL DE COMO SOLUCIONAR DICHO PROBLEMA
 
 
 
PARA DESCARGAR LOS AUDIOS NECESITAN TENER INSTALADO EL JDOWNLOADER O EL MYPONY, ENTRAR AL LOGO DE MEGA Y DAR CLICK EN EL ICIONO CLICK'N'LOAD Y AUTOMATICAMENTE SE AGREGARAN LOS LINKS A SU GESTOR DE DESCARGAS, YA SOLO DAN DESCARGAR. SALUDOS.

Solo usuarios registrados pueden comentar.

BIGTheme.net • Free Website Templates - Downlaod Full Themes