Jurassic Park Trilogy (1993-2001):Latino (DTS/AC3 5.1) (768 - 640 Kbps) *Extraído del BLURAY*

 

Jurassic Park (1993)
 
El multimillonario John Hammond consigue hacer realidad su sueño de clonar dinosaurios del Jurásico y crear con ellos un parque temático en una isla remota. Antes de abrirlo al público, invita a una pareja de eminentes científicos y a un matemático para que comprueben la viabilidad del proyecto. Pero las medidas de seguridad del parque no prevén el instinto de supervivencia de la madre naturaleza ni la codicia humana.
 
Audio
Format                                   : DTS
Format/Info                              : Digital Theater Systems
Mode                                     : 16
Format settings, Endianness              : Big
Duration                                 : 2h 6mn
Bit rate mode                            : Constant
Bit rate                                 : 768 Kbps
Channel(s)                               : 6 channels
Channel positions                        : Front: L C R, Side: L R, LFE
Sampling rate                            : 48.0 KHz
Bit depth                                : 24 bits
Compression mode                         : Lossy
Stream size                              : 695 MiB (100%)
 

 

 
 
MEGA
 
 
 
 
 
 
 
 
Jurassic Park 2 El Mundo Perdido (1997)
 
Cuatro años después del desastre ocurrido en el Parque Jurásico de la isla Nublar, John Hammond revela a Ian Malcolm que existe otra isla en la que se criaban los dinosaurios antes de ser transportados a la isla Nublar. Abandonados a su suerte tras el desastre, los dinosaurios han evolucionado, y Hammond está ansioso por verlos en su hábitat natural antes de empezar la explotación comercial.
 
Audio
Format                                   : AC-3
Format/Info                              : Audio Coding 3
Mode extension                           : CM (complete main)
Format settings, Endianness              : Big
Duration                                 : 2h 8mn
Bit rate mode                            : Constant
Bit rate                                 : 640 Kbps
Channel(s)                               : 6 channels
Channel positions                        : Front: L C R, Side: L R, LFE
Sampling rate                            : 48.0 KHz
Bit depth                                : 16 bits
Compression mode                         : Lossy
Stream size                              : 589 MiB (100%)
 
 
 
MEGA
 
 
 
Jurassic Park 3 (2001)
 
El doctor Alan Grant, ansioso por conseguir fondos que financien su estudio sobre la inteligencia del velociraptor, acepta la oferta de pareja de millonarios, Paul y Amanda Kirby, para sobrevolar la Isla Sorna, en Puerto Rico, poblada por dinosaurios creados genéticamente para un parque recreativo. Tras producirse un aterrizaje forzoso en la isla, Alan descubre que los Kirby estaban buscando a su hijo adolescente, perdido en la isla tras un accidente de parapente.
 
Audio
Format                                   : AC-3
Format/Info                              : Audio Coding 3
Mode extension                           : CM (complete main)
Format settings, Endianness              : Big
Duration                                 : 1h 32mn
Bit rate mode                            : Constant
Bit rate                                 : 640 Kbps
Channel(s)                               : 6 channels
Channel positions                        : Front: L C R, Side: L R, LFE
Sampling rate                            : 48.0 KHz
Bit depth                                : 16 bits
Compression mode                         : Lossy
Stream size                              : 423 MiB (100%)
 
 
 
MEGA
 
 
 
 
 
 
CREDITOS: DAMIANCRK
 
 
 
PARA DESCARGAR LOS AUDIOS NECESITAN TENER INSTALADO EL JDOWNLOADER O EL MYPONY, ENTRAR AL LOGO DE MEGA Y DAR CLICK EN EL ICIONO CLICK'N'LOAD Y AUTOMATICAMENTE SE AGREGARAN LOS LINKS A SU GESTOR DE DESCARGAS, YA SOLO DAN DESCARGAR. SALUDOS.
 
 
 

 

Solo usuarios registrados pueden comentar.

BIGTheme.net • Free Website Templates - Downlaod Full Themes